Статистика раздачи
Нет
 
   
 
 
 

kaczorrra


Стаж:
3 года 11 месяцев
Сообщений:
899

Galilea - Boobylicious Dessert 720p
Год выпуска: 2012
Страна: США
Жанр: Teen, Busty, Pornstar, Latin, Hardcore, Big Tits, Fake Tits
Продолжительность: 42:21
Описание: Busty latin teen girl like hard action. Couple does oral play and standing position missionary flavor, riding a dick and hard fuck.
File Size: 868 MB | Resolution: 1280x720 | Duration: 42:21 | Format: .mkv
Format : Matroska
Format version : Version 2
File size : 869 MiB
Duration : 42mn 21s
Overall bit rate : 2 867 Kbps
Writing application : Lavf52.39.1
Writing library : Lavf52.39.1
Video
ID : 1
Format : MPEG-4 Visual
Format profile : Simple@L1
Format settings, BVOP : No
Format settings, QPel : No
Format settings, GMC : No warppoints
Format settings, Matrix : Default (H.263)
Codec ID : V_MPEG4/ISO/ASP
Codec ID/Info : Advanced Simple Profile
Duration : 42mn 21s
Bit rate : 2 682 Kbps
Width : 1 280 pixels
Height : 720 pixels
Display aspect ratio : 16:9
Frame rate mode : Constant
Frame rate : 25.000 fps
Color space : YUV
Chroma subsampling : 4:2:0
Bit depth : 8 bits
Scan type : Progressive
Compression mode : Lossy
Bits/(Pixel*Frame) : 0.116
Stream size : 813 MiB (94%)
Writing library : Lavc52.37.0
Language : English
Default : Yes
Forced : No
Audio
ID : 2
Format : MPEG Audio
Format version : Version 1
Format profile : Layer 2
Codec ID : A_MPEG/L2
Codec ID/Hint : MP2
Duration : 42mn 21s
Bit rate mode : Constant
Bit rate : 128 Kbps
Channel(s) : 2 channels
Sampling rate : 44.1 KHz
Compression mode : Lossy
Stream size : 38.8 MiB (4%)
Language : English
Default : Yes
Forced : No
Качество: HDTV
Формат: MKV
Видео кодек: Другой MPEG4
Аудио кодек: MPEG Audio

Скриншоты

Показать сообщения:    

Текущее время: Сегодня 20:03

Часовой пояс: GMT + 3



Вы не можете начинать темы
Вы не можете отвечать на сообщения
Вы не можете редактировать свои сообщения
Вы не можете удалять свои сообщения
Вы не можете голосовать в опросах
Вы не можете прикреплять файлы к сообщениям
Вы не можете скачивать файлы