Статистика раздачи
Размер:  20.97 GB   |    Зарегистрирован:  3 года 1 месяц   |    Скачан:  65 раз
DL-List: Нет

Полного источника не было: 1 год 1 месяц

 
   
 
 
 

RockSter


Стаж:
3 года 2 месяца
Сообщений:
682

Sexual Healing / Сексуальное Исцеление- -Год выпуска: 2013
Язык: Английский
Страна: США
Жанр: Feature, All Sex, Hardcore
Продолжительность: 01:58:01-Режиссер: Robby D
Студия: Digital Playground-В ролях: Dani Jensen, Dillion Harper, Jynx Maze & Stoya-Описание: Stoya is a sex therapist who is having problems at home when her guy, James Deen, has trouble raising his wood. She is having more success with her patient/roommate, Jynx Maze, a horny hottie learning to control her inner urges of fucking strangers. Jynx feels familiar enough with the water deliver boy, Xander Corvus, to offer him a slippery plunge in and out of her sweet sugar hole. After one of Stoya's group therapy sessions, former lovers Richie Calhoun and Dillion Harper rekindle their romance with a fiery fucking. Johny Sins' stress related dysfunction has been resolved and therapist Stoya takes a test drive on his rock hard rocket for an orgasm inducing ride. Patient Dani Jensen services another of Stoya's clients, Danny Wylde, when he drops by. James returns after de-stressing his life in order to give Stoya an incredible anal pounding. It's all part of Stoya's sexual healing.-http://www.cduniverse.com/productinfo.asp?pid=8993372&style=ice-Доп. материалы и бонусы: Есть-Меню: Есть
Качество: Blu-Ray 1080p
Формат: Blu-Ray Video
Контейнер: BDMV
Видео кодек: H.264/AVC
Аудио кодек: AC-3
Видео: AVC, 1920x1080, 23.976 fps, 19.1 Mbps
Аудио: AC-3 48000Hz stereo 448 Kbps (6ch)

MI

00002.m2ts
Format : BDAV
Format/Info : Blu-ray Video
File size : 16.8 GiB
Duration : 1h 58mn
Overall bit rate mode : Variable
Overall bit rate : 20.4 Mbps
Maximum Overall bit rate : 48.0 Mbps
Video
ID : 4113 (0x1011)
Menu ID : 1 (0x1)
Format : AVC
Format/Info : Advanced Video Codec
Format profile : High@L4.1
Format settings, CABAC : Yes
Format settings, ReFrames : 3 frames
Codec ID : 27
Duration : 1h 58mn
Bit rate mode : Variable
Bit rate : 19.1 Mbps
Maximum bit rate : 25.0 Mbps
Width : 1 920 pixels
Height : 1 080 pixels
Display aspect ratio : 16:9
Frame rate : 23.976 fps
Standard : NTSC
Color space : YUV
Chroma subsampling : 4:2:0
Bit depth : 8 bits
Scan type : Progressive
Bits/(Pixel*Frame) : 0.384
Stream size : 15.8 GiB (94%)
Color primaries : BT.709
Transfer characteristics : BT.709
Matrix coefficients : BT.709
Audio
ID : 4352 (0x1100)
Menu ID : 1 (0x1)
Format : AC-3
Format/Info : Audio Coding 3
Mode extension : CM (complete main)
Format settings, Endianness : Big
Codec ID : 129
Duration : 1h 58mn
Bit rate mode : Constant
Bit rate : 448 Kbps
Channel(s) : 6 channels
Channel positions : Front: L C R, Side: L R, LFE
Sampling rate : 48.0 KHz
Bit depth : 16 bits
Compression mode : Lossy
Stream size : 378 MiB (2%)

BDInfo

DISC INFO:
Disc Title: SEXUAL_HEALING_BD
Disc Size: 22 516 317 017 bytes
Protection: AACS
BD-Java: No
BDInfo: 0.5.8
PLAYLIST REPORT:
Name: 00002.MPLS
Length: 1:58:01.240 (h:m:s.ms)
Size: 18 038 691 840 bytes
Total Bitrate: 20,38 Mbps
VIDEO:
Codec Bitrate Description
----- ------- -----------
MPEG-4 AVC Video 19000 kbps 1080p / 23,976 fps / 16:9 / High Profile 4.1
AUDIO:
Codec Language Bitrate Description
----- -------- ------- -----------
Dolby Digital Audio English 448 kbps 5.1 / 48 kHz / 448 kbps / DN -4dB

Скриншоты

[pornotorrent.net]_1382544620_343661300.torrent 
 ЗОЛОТАЯ РАЗДАЧА! СКАЧАННОЕ НЕ ЗАСЧИТЫВАЕТСЯ! 
Торрент: Зарегистрирован   [ 2013-10-23 19:10 ]

Скачать .torrent

Скачать

111 KB

Статус: проверено
Скачан: 65 раз
Размер: 20.97 GB
Оценка: 
(Голосов: 1)
Поблагодарили: 7  Спасибо   (список)
 
Пишите мне в личку что бы вы хотели увидеть на трекере (сайты, жанры, актрис и др)
Постараюсь выполнить ваши пожелания
Похожие темы
Показать сообщения:    

Текущее время: Сегодня 17:43

Часовой пояс: GMT + 3



Вы не можете начинать темы
Вы не можете отвечать на сообщения
Вы не можете редактировать свои сообщения
Вы не можете удалять свои сообщения
Вы не можете голосовать в опросах
Вы не можете прикреплять файлы к сообщениям
Вы можете скачивать файлы