Статистика раздачи
Размер:  23.13 GB   |    Зарегистрирован:  1 год 8 месяцев   |    Скачан:  19 раз
DL-List: Нет

Полного источника не было: 1 год

 
   
 
 
 

control shot

VIP


Стаж:
2 года 1 месяц
Сообщений:
1962

Молодежная Америка Джека:Миссия 3 / Jacks Teen America:Mission 3
Жанр: Anal, Facial, A2M, Swallow, Toy, Gonzo, Straight
Год выпуска: 2004
Продолжительность: 02:00:27
Перевод: Не требуется
Cубтитры: нет
Оригинальная аудиодорожка: английский
Страна: USA
Студия: Digital Playground
Режиссер: Robby D.
В ролях: Harmony Rose, Lauren Phoenix, Megan Martinez, Rachel Rotten, Sativa Rose
Описание: Jack's at it again! But this time, it's professional... and even kinkier than before. Jack turns what he knows best into a career. Welcome to Jack's answer to getting a fuckin' job!

Scene Breakdowns

Scene 1. Lauren Phoenix, Mark Ashley
Scene 2. Sativa Rose, Christian XXX
Scene 3. Rachel Rotten, Rob Rotten
Scene 4. Harmony Rose, Christian XXX
Scene 5. Megan Martinez, Tommy Gunn
Доп. Материалы: Chapter Selection, Slide Show, Trailers
Тип релиза: Blu-ray disc
Контейнер: BDAV
Видео: Video: MPEG4 Video (H264/AVC) 1440x1080 (16:9) 29.97fps 24.1Mbps
Аудио: Audio: Dolby AC3 48000Hz 6ch 448kbps

MediaInfo

General
ID : 0 (0x0)
Complete name : Jack's Teen America 3 XXX Blu-ray\BDMV\STREAM\00002.m2ts
Format : BDAV
Format/Info : Blu-ray Video
File size : 21.5 GiB
Duration : 2h 0mn
Overall bit rate mode : Variable
Overall bit rate : 25.6 Mbps
Maximum Overall bit rate : 48.0 Mbps
Video
ID : 4113 (0x1011)
Menu ID : 1 (0x1)
Format : AVC
Format/Info : Advanced Video Codec
Format profile : High@L4.1
Format settings, CABAC : Yes
Format settings, ReFrames : 4 frames
Codec ID : 27
Duration : 2h 0mn
Bit rate mode : Variable
Bit rate : 24.1 Mbps
Maximum bit rate : 32.0 Mbps
Width : 1 440 pixels
Height : 1 080 pixels
Display aspect ratio : 16:9
Frame rate : 29.970 fps
Standard : NTSC
Color space : YUV
Chroma subsampling : 4:2:0
Bit depth : 8 bits
Scan type : MBAFF
Scan order : Top Field First
Bits/(Pixel*Frame) : 0.518
Stream size : 20.3 GiB (94%)
Color primaries : BT.709
Transfer characteristics : BT.709
Matrix coefficients : BT.709
Color range : Limited
Audio
ID : 4352 (0x1100)
Menu ID : 1 (0x1)
Format : AC-3
Format/Info : Audio Coding 3
Mode extension : CM (complete main)
Format settings, Endianness : Big
Codec ID : 129
Duration : 2h 0mn
Bit rate mode : Constant
Bit rate : 448 Kbps
Channel(s) : 6 channels
Channel positions : Front: L C R, Side: L R, LFE
Sampling rate : 48.0 KHz
Bit depth : 16 bits
Compression mode : Lossy
Stream size : 386 MiB (2%)

Скриншоты

[pornotorrent.net]_1425582740_667956747.torrent 
Торрент: Зарегистрирован   [ 2015-03-05 22:12 ]

Скачать .torrent

Скачать

119 KB

Статус: проверено
Скачан: 19 раз
Размер: 23.13 GB
Оценка: 
(Голосов: 0)
Поблагодарили: 1  Спасибо   (список)
 
Похожие темы
Показать сообщения:    

Текущее время: Сегодня 22:01

Часовой пояс: GMT + 3



Вы не можете начинать темы
Вы не можете отвечать на сообщения
Вы не можете редактировать свои сообщения
Вы не можете удалять свои сообщения
Вы не можете голосовать в опросах
Вы не можете прикреплять файлы к сообщениям
Вы можете скачивать файлы